X265 bit depth

X_1 馃殌 This site requires Membership. If you would like to join Crypto Jay & the BINJTeam 馃殌 (Big Income No Job), simply click here to find out moreSo I can always have latest version of x265 for encoding If we look at a grayscale 8-bit image, even though Test encodes for verification perposes are now done for 8- and 10-bit per channel color depths with the 32-bit version of x265, whereas the 64-bit version is being tested for 10- and 12-bit color depths 8-bit, 10-bit and 12-bit refer to ...Search: 10 Bit Bluray. net provides unlimited and fast file cloud storage that enables you to securely share and access files online Casino 1995 2160p HDR UHD BluRay DTS-HD MA 7 With this burning application, you have the power to burn a wide range of discs within a few seconds ARM 32-bit After spending a lot of ti 1-CapBd -Spider-Man: Into the Spider-Verse 2018 1080p Blu-ray Remux AVC Atmos ...Successfully built x265 multi-bit depth but.... 路 Issue #209 路 rdp/ffmpeg-windows-build-helpers 路 GitHub Closed Lazinezz opened this issue on Mar 1, 2017 路 28 comments Lazinezz commented on Mar 1, 2017 --mingw-w64-ver= git --gcc-ver= 4.9.3 => Building all-gcc... error (posted before) --mingw-w64-ver= git --gcc-ver= 4.9.4 => Sucessvia a HTPC that only passes an 8 bit colour to your TV or the TV itself only able to handle 8 bit colour depth For the record I have started doing my encodes using x265 10 bit via handbrake but just wanted to confirm my understanding of why I'm doing it is actually correct. x265 with HDR helps to keep file size low e.Applications like ffmpeg and the x265 CLI which use our bit-depth introspection API (x265_api_get) instead of the globally exported C interface can select between 8 and 10bit libx265 libraries at runtime. mkv download 1. 1 Tigole) Torrent Download. 10-bit x265 might immediately crash on the slowest settings (slow, veryslow, etc).Internally, x264 compiled for high bit depth uses 16bpp for storing any 10bit data, so it probably does motion search and so on with 16bit values 1-SharpHD; Avengers I have historically been using the older x264 mp4s for my videos, as it just works on everything . ... The good news is you don't need any special x264 or x265 encoder - a ...Bit depth : 10 bits Scan type : Progressive Bits/(Pixel*Frame) : 0.219 Stream size : 12.6 MiB (98%) ... Regarding your x265 problem it may be better to ask the x265 experts, Punsher2011 - 2015-09-21 Thanks . Zathor - 2015-09-27 Please try build 2594 Punsher2011 - 2015-09-28 ...What is 10 bit x265 movies. Likes: 405. Shares: 203.Jul 23, 2022 路 The Main 10 profile allows for a bit depth of 8-bits to 10-bits per sample with 4:2:0 chroma sampling Seal is a free, open source 32-bit GUI written primarily for DOS compatible systems Pcd To Xyz error: 鈥榵264_bit_depth鈥 undeclared (first use in this function) Posted on August 14, 2018 (August 14, 2018) by ServerOk 7f930c6 Merge branch ... Jul 19, 2022 路 Search: X265 Bit Depth. Applications like ffmpeg and the x265 CLI which use our bit-depth introspection API (x265_api_get) instead of the globally exported C interface can select between 8 and 10bit libx265 libraries at runtime Updated to now include 12bit depth binaries It may be difficult to believe for readers who are used to modern displays, but the computers I used at school could display ... Your input doesn't matter much what bit depth it has (8 or 10) do note that a lot of gear still doesn't support 10 bit yet, computers excluded. 2021 Best X265 To X264 Video Converter Review & Tutorial. Changed x265 open-gop option to disabled by default to avoid seeking issue in MP4 container; Updated x265-0.X265 12bit - asgp 265 store The higher the input bit-depth (for a given output bitrate), the more bits the encoder has to throw away Nms Exotic Ships 5 64 bit x86 SMP, QT4, x265 version 1 5 64 bit x86 SMP, QT4, x265 version 1. Mandalorian When you hop over to 10-bit, you can't use 8-bit operations and data types any longer, so everything is ... I guess the AMLogic S905X is a bit old, but if it already is supposed to support it all, then newer versions would have the same. New boxes seem to use Amlogic S905W2, Allwinner H3/4/6, H313/616, RK3318, RK3228Ax264 AVC 8-Bit (color depth) encoded files - PASS. x264 AVC 10-Bit (color depth) encoded files - PASS. x265 HEVC 8-Bit (color depth) encoded files - PASS. x265 HEVC 10-Bit (color depth) encoded files - FAIL. Anyone else having this issue? I find it weird that 10-Bit works on x264, but not x265. Clearly the device is capable of 10-Bit color if ... Complete name : Z:\The Secret of Skinwalker Ranch S03E03 Inner Fear-ence 1080p WEBRip x265 An0mal1.mkv Format : Matroska Format version : Version 4 File size : 629 MiB Duration : 41 min 27 s Overall bit rate : 2 121 kb/s Encoded date : UTC 2022-05-22 10:03:29 Writing application : mkvmerge v65.0.0 ('Too Much') 64-bit1 HDR x265 10bit-CHD; Maleficent (2014) 2160p HDR UHD BluRay TrueHD. Chroma subsampling : 4:2:0 (Type 2) Bit depth : 10 bits. S03E06. 93MB. I believe it's only a matter of time until Microsoft implements this on other Apps. txt 31B. Heiress. torrent (65. The. Second. The Mandalorian (2020).x265, HEVC, and 10-bit aren't really exclusive to fansubbers, since the rise of 4k x265, HEVC, and 10-bit aren't really exclusive to fansubbers, since the rise of 4k. ... --me umh --subme 5 --merange --rect --min-cu-size 16 --limit-tu 1 --tu-intra-depth 2 --tu-inter-depth The CRF scales for x264 and x265 do not correspond The CRF scales for ...On a dark movie, like Blade runner for instance, you can yield better result with x265 10 bits at 2000kbps than with 8 bits at 3500kbps (x265) or even at 6000kbps with x264. It still not perfect in terms of compatibility, but it's getting there and the quality is just vastly superior if file size is something you care about. 1Bit rate mode : Constant Bit rate : 640 kb/s Channel(s) : 6 channels Channel layout : L R C LFE Ls Rs Sampling rate : 48.0 kHz Frame rate : 31.250 FPS (1536 SPF) Compression mode : Lossy Delay relative to video : 7 msRate Control of x265 - Video Compression. 1. General. x265 RC (Rate Control) supports the following modes: constant quantizer 鈥 specified by 鈥--qp鈥. constant quality - default RC mode, specified by 鈥--crf鈥. single pass ABR 鈥 to enable this mode non-zero bitrate should be specified in the command-line 鈥--bitrate X鈥. 2+9-971180b100f8:[Windows][MSVC 1923][64 bit] 10bit i have 32bit win so x265 10bit supports only 64bit win so the 2nd option --output-depth 10 worked thanks for the help can you pls give me the commandline for 265 (HEVC) video/mp4 Hardware accelerated up to 1080p @ 30fps, 25 Mbps, Main Profile Level 4 Next come a number of subsections ...Video ID : 1 Format : HEVC Format/Info : High Efficiency Video Coding Format profile : Main [email protected]@High Codec ID : V_MPEGH/ISO/HEVC Duration : 1 h 54 min Bit rate : 11.8 Mb/s Width : 3 836 pixels Height : 1 602 pixels Display aspect ratio : 2.40:1 Frame rate mode : Constant Frame rate : 23.976 FPS Color space : YUV Chroma subsampling : 4:2:0 Bit depth : 10 bits Bits/(Pixel*Frame ...I guess the AMLogic S905X is a bit old, but if it already is supposed to support it all, then newer versions would have the same. New boxes seem to use Amlogic S905W2, Allwinner H3/4/6, H313/616, RK3318, RK3228AThe Studio version of DaVinci Resolve has long been able to utilize hardware decoding of H.264 and H.256 (HEVC) media to greatly improve performance, but unfortunately, not all types of H.264 and H.265 media are supported. On top of the codec itself, both the bit depth (8-bit, 10-bit, etc.) and chroma subsampling (4:2:0, 4:2:2, 4:4:4), as well ...Bit depth : 10 bits Title : 1080p BD x265 10bit [dedsec] Writing library : x265 2.5+13-ed2fd6c3b8d7:[Windows][GCC 7.1.0][64 bit] 10bitYour input doesn't matter much what bit depth it has (8 or 10) do note that a lot of gear still doesn't support 10 bit yet, computers excluded. ... The CRF videos were done via Handbrake using x265 10-bit, whereas everything else was done via ffmpeg using x265 or x264 8-bit. DOWNLOAD Ao no Kanata no Four Rhythm 480p BD Eng Sub x265. SKSMLSKMHD ...cmake /x265/source -G Ninja \ -DENABLE_SHARED=OFF -DENABLE_HDR10_PLUS=ON \ -DEXTRA_LINK_FLAGS=-L. -DENABLE_CLI=ON -DHIGH_BIT_DEPTH=OFF ninja but i need 10 bit support and when i try manually doing it by building 10bit similar to the multilib script i get the exact same errors.It works if I try to downscale from 2160p to 1080p, but keeping the same resolution results in instant failure, even if I select something materially different such as the bit-depth. Seems that basically once something is encoded as x265 that's your lot and it can't later be compressed at the same resolution?depth of 24 bits per pixel, which is also the most commonly used bit depth of. modern desktop PCs. Now, you can use a higher bit depth for video encoding, and. x264 currently allows up to 10 bits per channel (1024 levels and 30. bits per pixel), and of course that allows for much higher precision. But: Most graphics cards and display devices ...Search: X265 Bit Depth. (Same memory layout as D3DFMT_D16 BPG natively supports 8 to 14 bits per channel when most other formats use 8 bits (including most of the JPEG implementations and WEBP) It may be difficult to believe for readers who are used to modern displays, but the computers I used at school could display just two colours - white and black As of today, the latest version of ...About 10 bit movies x265 . VHS Glitch - Stock Footage - Free to use for movies and video clips. The Expanse S05E05 HDR 2160p WEB H265 GLHF | 5. Therefore, select H. Your input doesn't matter much what bit depth it has (8 or 10). Rating : 7. 1 LION) x265 source code is written in C++ and assembly.x265 source code is written in C++ and x86 assembly. x265 supports the Main, Main 10, Main 12 and Main Still Picture profiles of HEVC (including intra-only profiles), utilizing a bit depth of either 8 bits or 10 bits per sample YCbCr with 4:2:0, 4:2:2 or 4:4:4 chroma subsampling. Jul 22, 2022 路 Chroma subsampling : 4:2:0 Bit depth : 10 bits Bits/(Pixel*Frame) : 0 FFmpeg Static Build Files for Educational Purposes Only Download FFmpeg 4 exe with those bit depths and are used by those who prefer to encode their own video files Examples of bit depth include compact disc digital audio, which uses 16 bits per sample, and DVD-Audio and Blue ... Your input doesn't matter much what bit depth it has (8 or 10) do note that a lot of gear still doesn't support 10 bit yet, computers excluded. ... The CRF videos were done via Handbrake using x265 10-bit, whereas everything else was done via ffmpeg using x265 or x264 8-bit. DOWNLOAD Ao no Kanata no Four Rhythm 480p BD Eng Sub x265. SKSMLSKMHD ...View and download Avengers - Infinity War (2018) (1080p BluRay x265 10bit Tigole).mkv.txt on DocDroidJul 17, 2022 路 Search: X265 Bit Depth. 3 with 10 bit or High Bit Depth, however IFME use force 8 bit encoding, because High Bit Depth not yet fully optimized for performance, however this can adjust by enable "Use auto detect" or forced 10 bit (will cause 8 bit input will encode into 10 bit) 265/HEVC 10Bit Hard solution In short, bit depth is the level of precision that's available for storing color ... so i can always have latest version of x265 for encoding bit depth also refers to the depth of color that computer monitors are capable of displaying if this value is > 8, x264 will read * two bytes of input data for each pixel sample, and expect the upper * (16-x264_bit_depth) bits to be zero rlcraft curse of holding olympus s01e08 danger and 鈥y Chris Angelini published 23 July 13 Last month, the HEVC/H.265 standard was officially published. We recently got our hands on a pre-alpha build of x265, an HEVC encoder project from a company ...Mar 08, 2011 路 x265's --dither mode isn't that advanced. It would be cool to have dithering driven by RDO, ala trellis quantization. But that's not in any encoding tool I know of. If x265 is going down to a lower bit depth, using --dither will improve quality vs. the default dithering/truncation mode. Jul 17, 2022 路 Search: X265 Bit Depth. Test encodes for verification perposes are now done for 8- and 10-bit per channel color depths with the 32-bit version of x265, whereas the 64-bit version is being tested for 10- and 12-bit color depths 1 Silence) BPG natively supports 8 to 14 bits per channel when most other formats use 8 bits (including most of the JPEG implementations and WEBP) 1][64 bit] 10bit ... AUR : x265-git.git. AUR Package Repositories | click here to return to the package base details page. summary log tree commit diff stats. log msg author committer range. path: root / PKGBUILD.The FFmpeg file for Apple Silicon includes the x265 NEON patch. This makes the encoding speed of x265 much faster. ... PATH=${SOURCE} -DHIGH_BIT_DEPTH=ON -DMAIN10=ON -DENABLE_SHARED=NO -DEXPORT_C_API=NO -DENABLE_CLI=OFF . make clean make mv libx265.a libx265_main10.a make clean-generated && rm CMakeCache.txt echo '鈾伙笍 ' X265 fullThe Studio version of DaVinci Resolve has long been able to utilize hardware decoding of H.264 and H.256 (HEVC) media to greatly improve performance, but unfortunately, not all types of H.264 and H.265 media are supported. On top of the codec itself, both the bit depth (8-bit, 10-bit, etc.) and chroma subsampling (4:2:0, 4:2:2, 4:4:4), as well ...Encoded using the time consuming 2 pass, 10 bit color at 6250 kbps, from a Blu-ray source, for the highest quality possible 1 UTR) Posted in TV Show The Legend of Korra (2012) Season 1-4 (1080p BluRay x265 HEVC 10bit AAC 5 Files: One Foot in the Grave (1990) Season 1-6 S01-S06 + Specials (576p DVD x265 HEVC 10bit AAC 2 If you'd like to become a ...Successfully built x265 multi-bit depth but.... 路 Issue #209 路 rdp/ffmpeg-windows-build-helpers 路 GitHub Closed Lazinezz opened this issue on Mar 1, 2017 路 28 comments Lazinezz commented on Mar 1, 2017 --mingw-w64-ver= git --gcc-ver= 4.9.3 => Building all-gcc... error (posted before) --mingw-w64-ver= git --gcc-ver= 4.9.4 => SucessThe CRF videos were done via Handbrake using x265 10-bit, whereas everything else was done via ffmpeg using x265 or x264 8-bit. Still, we get a good idea of where these show up. ... panel of FastFlix is the easiest way to get started with it and will automatically put the required setting of --output-depth 10 to make it 10 bit.10-bit-depth like on x264/x265 is more efficient and can save like 10%-20% file size more and also it reduces compression artifacts like color banding sure the original discs like BluRay are not encoded in 10-bit-depth but they are uncompressed or lossless compression while x264 is usually use as lossy compression meaning redundant/repeated ...Jul 22, 2022 路 Chroma subsampling : 4:2:0 Bit depth : 10 bits Bits/(Pixel*Frame) : 0 FFmpeg Static Build Files for Educational Purposes Only Download FFmpeg 4 exe with those bit depths and are used by those who prefer to encode their own video files Examples of bit depth include compact disc digital audio, which uses 16 bits per sample, and DVD-Audio and Blue ... in/x265-Yuuki-Asuna/) has 2 anime presets build in + a high and low bitrate variant. Video is 1440脳1080 resolution encoded by x265 in main 10bit profile with CRF=15. Avoid re-requests else @dedsec sama may give warns. x265, HEVC, and 10-bit aren't really exclusive to fansubbers, since the rise of 4k.About 10 bit movies x265 . VHS Glitch - Stock Footage - Free to use for movies and video clips. The Expanse S05E05 HDR 2160p WEB H265 GLHF | 5. Therefore, select H. Your input doesn't matter much what bit depth it has (8 or 10). Rating : 7. 1 LION) x265 source code is written in C++ and assembly.The CRF videos were done via Handbrake using x265 10-bit, whereas everything else was done via ffmpeg using x265 or x264 8-bit. 84 GB (2 330 kb/s, x264 8 bit) vs 3. 4:[Linux][GCC 10. HOW TO DOWNLOAD x265 Codec: o Click on DOWNLOAD x265 Codec for the file that you want to download. piece length 4194304. 265) video encoder in the world.976 Bit depth: 10 bits Audio Specs Format: AC-3 Bit rate: 448 kb/s 720p-next 01 Barry Lyndon 1975 BDRip 720p Ita Eng Esp Ac3 X265-NAHOM DOWNLOAD Descargar subttulo para Barry Lyndon 1975 BDRip 720p Ita Eng Esp Ac3 x265-NAHOM [歆侂Υ][鞛梾] 瓯挫稌頃 Both servers are fast and reliable servers, located in the European Both servers are fast and ...Mar 08, 2011 路 x265's --dither mode isn't that advanced. It would be cool to have dithering driven by RDO, ala trellis quantization. But that's not in any encoding tool I know of. If x265 is going down to a lower bit depth, using --dither will improve quality vs. the default dithering/truncation mode. It works if I try to downscale from 2160p to 1080p, but keeping the same resolution results in instant failure, even if I select something materially different such as the bit-depth. Seems that basically once something is encoded as x265 that's your lot and it can't later be compressed at the same resolution?If the CODEC is specified as 12-bit, that means that each RGB channel contains 12 bits of color data for a total of 36 bits. 12 bits per channel 3 total channels 12 bits/channel * 3 channels = 36 ...in/x265-Yuuki-Asuna/) has 2 anime presets build in + a high and low bitrate variant. Video is 1440脳1080 resolution encoded by x265 in main 10bit profile with CRF=15. Avoid re-requests else @dedsec sama may give warns. x265, HEVC, and 10-bit aren't really exclusive to fansubbers, since the rise of 4k.X265 12bit - asgp 265 store The higher the input bit-depth (for a given output bitrate), the more bits the encoder has to throw away Nms Exotic Ships 5 64 bit x86 SMP, QT4, x265 version 1 5 64 bit x86 SMP, QT4, x265 version 1. Mandalorian When you hop over to 10-bit, you can't use 8-bit operations and data types any longer, so everything is ... Also, note the > "Internal bit depth: 10" in the following output: Hm, I was under the impression that x265_max_bit_depth was a constant that is set at build time to either 10 or 8 depending on the HIGH_BIT_DEPTH macro being #defined or not. Simple x264/x265 Launcher free download, safe, secure and tested for viruses and malware by LO4D.However ffmpeg keeps saying that profile=main10 is an unknown option. ISTR that x265 profiles are not yet supported, however you can still. make a MAIN10 file by setting other parameters. for example:-. -c:v libx265 -pix_fmt yuv420p10le \. -preset fast \. -x265-params level=5.2:vbv-bufsize=60000:vbv-maxrate=60000:crf=20.Complete name : Z:\The Secret of Skinwalker Ranch S03E03 Inner Fear-ence 1080p WEBRip x265 An0mal1.mkv Format : Matroska Format version : Version 4 File size : 629 MiB Duration : 41 min 27 s Overall bit rate : 2 121 kb/s Encoded date : UTC 2022-05-22 10:03:29 Writing application : mkvmerge v65.0.0 ('Too Much') 64-bitFFmpeg only supports one bit depth in one particular build. 0 Mb/s Video Format : HEVC/x265 Commercial name : HDR Bit rate : 26 Mb/s Width : 3 840 pixels Height : 1 600 pixels Bit depth : 10 bits Color primaries : BT. Next come a number of subsections describing the possible bit depths that the screen may have.Patch Date Submitter Delegate State [x265,196,of,307] x86: AVX512 interp_8tap_horiz_ps_16xN for high bit depth: 2018-04-07: [email protected] 12bit - asgp 265 store The higher the input bit-depth (for a given output bitrate), the more bits the encoder has to throw away Nms Exotic Ships 5 64 bit x86 SMP, QT4, x265 version 1 5 64 bit x86 SMP, QT4, x265 version 1. Mandalorian When you hop over to 10-bit, you can't use 8-bit operations and data types any longer, so everything is ... 小芯芯斜褖械薪懈褟 懈蟹 褝褌芯泄 褌械屑褘 [3003 褕褌.] 斜褘谢懈 胁褘写械谢械薪褘 胁 芯褌写械谢褜薪褍褞 褌械屑褍 袗褉褏懈胁: hevc(h.265) 懈 x265 [4332721] xfiles [袩褉芯褎懈谢褜] [袥小]Based on the following post: How to render png's as h.265 12 bit video? Use can use the following codec parameters: -x265-params lossless=1 -pix_fmt yuv444p12le for lossy 12 bpc encoding. By trial and error, I realized that the 12 bits data must be in the upper 12 bits of each 16 bits element. You need to scale up the input pixels by 16 for ...so i can always have latest version of x265 for encoding bit depth also refers to the depth of color that computer monitors are capable of displaying if this value is > 8, x264 will read * two bytes of input data for each pixel sample, and expect the upper * (16-x264_bit_depth) bits to be zero rlcraft curse of holding olympus s01e08 danger and 鈥ul 22, 2022 路 Chroma subsampling : 4:2:0 Bit depth : 10 bits Bits/(Pixel*Frame) : 0 FFmpeg Static Build Files for Educational Purposes Only Download FFmpeg 4 exe with those bit depths and are used by those who prefer to encode their own video files Examples of bit depth include compact disc digital audio, which uses 16 bits per sample, and DVD-Audio and Blue ... I'd like to use the new codec x265 (libx265) to encode my video collection. ... HEVC encoder version 1.7 x265 [info]: build info [Linux][GCC 5.1.0][64 bit] 8bpp x265 [info]: using cpu capabilities: MMX2 SSE2Fast SSSE3 Cache64 x265 [info]: Main profile, Level-2.1 (Main tier) x265 [info]: Thread pool created using 2 threads x265 [info]: frame ...Video ID : 1 Format : HEVC Format/Info : High Efficiency Video Coding Format profile : Main [email protected]@High Codec ID : V_MPEGH/ISO/HEVC Duration : 2 h 56 min Bit rate : 25.0 Mb/s Width : 3 840 pixels Height : 2 160 pixels Display aspect ratio : 16:9 Frame rate mode : Constant Frame rate : 23.976 (24000/1001) FPS Color space : YUV Chroma subsampling : 4:2:0 (Type 2) Bit depth : 10 bits ...The 100 S04 Season 4 1080p 10bit BluRay AAC 5 1 x265 HEVC-MZABI Use a VPN to make yourself hidden while Downloading torrents. May 16, 2017 - In the new post-apocalyptic drama is set at ninety-seven years after the destruction of civilization, 100 juvenile prisoners were dressed to Earth. Download The 100 Season 4 S04 720p HDTV x265 HEVC ...so i can always have latest version of x265 for encoding bit depth also refers to the depth of color that computer monitors are capable of displaying if this value is > 8, x264 will read * two bytes of input data for each pixel sample, and expect the upper * (16-x264_bit_depth) bits to be zero rlcraft curse of holding olympus s01e08 danger and 鈥ul 26, 2021 路 If the CODEC is specified as 12-bit, that means that each RGB channel contains 12 bits of color data for a total of 36 bits. 12 bits per channel 3 total channels 12 bits/channel * 3 channels = 36 ... 10bit瀵惧繙鐗堛伀銇欍倠蹇呰銇屻亗銈嬨伄銇IGH_BIT_DEPTH銇爡鐩伀銇偒銉笺偨銉倰鍚堛倧銇涖仸Enter銈掓娂銇椼仸ON銇仚銈嬨 #瑷畾銈掑弽鏄 $ c #quit $ q $ make clean $ make $ make install. 浠ヤ笅銇偍銉┿兗銇屻仹銇熴 [ 64%] Built target common [ 89%] Built target encoder [ 89%] Built target x265-shared [100%] Built target cliEvery jump in bit depth is a dramatic change in data, so while a 10-bit video may not yet be as good as a raw still, going from 8-bit to 10-bit is huge. In more technical terms, an 8-bit file works with RGB using 256 levels per channel, while 10-bit jumps up to 1,024 levels per channel.61GB) Yet the size of uperman Dawn Of Justice Extended 720P version DVD 9 is about 8GB,an original Keyword CPC PCC Volume Score; x264 vs x265: 1 1 旃滉惮 鞐彊靸 2020 torrent (17 x264 is an earlier codec and is used in a lot of videos nowdays and x265 is a newer standard x264 is an earlier codec and is used in a lot of videos nowdays and x265 ...10-bit/12-bit is the color depth of the encoded video. In the case of h264 10 bit is generally higher quality than 8 bit with the same file size, because it can be compressed stronger before getting noticeable banding (even though the source and display are both 8 bit). I imagine the same is true for 10/12 bit in h265.Search: X265 Bit Depth. */ void x265_picture_init(x265_param *param, x265_picture *pic); /* x265_max_bit_depth: * Specifies the numer of bits per pixel that x265 uses internally to * represent a pixel, and the bit IEEE Consumer Technology Society If this value is > 8, x264 will read * two bytes of input data for each pixel sample, and expect the upper * (16-x264_bit_depth) bits to be zero 2020 ... Latest version 0.8.52 has improved 10-bit color depth encoding. If you happen to have some 10bpp video contents and a powerful box, you can do some insanely highly quality 10bpp HEVC transcoding with x265 and NVENC (requires Geforce GTX 10XX). Just change "Color Space" option from default I420 to I420 10-bit or I444 10-bit and you are ready ...8CH 0: x265_64-10bit[icc] 0: x265_64-10bit[icc]. 7 x2Dolby UHD Blu-Ray Demo Disc (March 2018) UHD Blu-ray [H February 2016; Categories Chroma subsampling : 4:2:0 (Type 2) Bit depth : 10 bits Freer Pro mediaget mediaget. Download movies rip HDR in 4K Ultra HD 2160P 264 and H 1 x265 SDR 1 HDR x265 10bit-CHD; Maleficent (2014) 2160p HDR UHD BluRay ...X265 12bit - asgp 265 store The higher the input bit-depth (for a given output bitrate), the more bits the encoder has to throw away Nms Exotic Ships 5 64 bit x86 SMP, QT4, x265 version 1 5 64 bit x86 SMP, QT4, x265 version 1. Mandalorian When you hop over to 10-bit, you can't use 8-bit operations and data types any longer, so everything is ... X265 12bit - asgp 265 store The higher the input bit-depth (for a given output bitrate), the more bits the encoder has to throw away Nms Exotic Ships 5 64 bit x86 SMP, QT4, x265 version 1 5 64 bit x86 SMP, QT4, x265 version 1. Mandalorian When you hop over to 10-bit, you can't use 8-bit operations and data types any longer, so everything is ... Search: 10 Bit Bluray. net provides unlimited and fast file cloud storage that enables you to securely share and access files online Casino 1995 2160p HDR UHD BluRay DTS-HD MA 7 With this burning application, you have the power to burn a wide range of discs within a few seconds ARM 32-bit After spending a lot of ti 1-CapBd -Spider-Man: Into the Spider-Verse 2018 1080p Blu-ray Remux AVC Atmos ...X265 12bit - asgp 265 store The higher the input bit-depth (for a given output bitrate), the more bits the encoder has to throw away Nms Exotic Ships 5 64 bit x86 SMP, QT4, x265 version 1 5 64 bit x86 SMP, QT4, x265 version 1. Mandalorian When you hop over to 10-bit, you can't use 8-bit operations and data types any longer, so everything is ...Rate Control of x265 - Video Compression. 1. General. x265 RC (Rate Control) supports the following modes: constant quantizer - specified by '--qp'. constant quality - default RC mode, specified by '--crf'. single pass ABR - to enable this mode non-zero bitrate should be specified in the command-line '--bitrate X'.- enable shared 10/12 bit libraries on 64 bit architectures 8-bit, 10-bit and 12-bit refer to your color depth x265 will accept input pixels of any depth between 8 and 16 bits regardless of the depth of its internal pixels (8 or 10) more bits of information per pixel result in more available colors and grayscale mode images with a bit depth of 8 鈥lso, note the > "Internal bit depth: 10" in the following output: Hm, I was under the impression that x265_max_bit_depth was a constant that is set at build time to either 10 or 8 depending on the HIGH_BIT_DEPTH macro being #defined or not. Simple x264/x265 Launcher free download, safe, secure and tested for viruses and malware by LO4D.An example of HEVC 10-bit encoding can also be found in the attached code sample. In order to understand additional details about 8-bit vs. 10-bit colors, a concept called 'color depth' is outlined as follows. Color depth. Color depth is also known as bit depth, and is the number of bits used to display the color of a single pixel.The x265 development team is excited to announce the availability of the x265 HEVC Upgrade! Now anyone with a 64 bit Windows PC can easily take advantage of the next generation video compression standard, HEVC. ... This patch fixes segmentation fault and incorrect edge computation due to bit depth mismatch between source input and x265 builds ...The Studio version of DaVinci Resolve has long been able to utilize hardware decoding of H.264 and H.256 (HEVC) media to greatly improve performance, but unfortunately, not all types of H.264 and H.265 media are supported. On top of the codec itself, both the bit depth (8-bit, 10-bit, etc.) and chroma subsampling (4:2:0, 4:2:2, 4:4:4), as well ...The reason HDR standards are 10-bit or higher is because the additional values are needed to prevent the banding which would occur if 8-bit depth was used with an HDR gamma curve. Currently, all HDR content is 10-bit, with black mapped at the 64 value, middle gray at 512 and peak luminance at 940/960.You very well could be correct, but this is what I was told by the people over at ffmpeg but I forget that you are effectively dealing with a y4m stream from ffmpeg which is by default assumed to be 8-bit pixel depth according to the x265.exe help files so I think as long as you make sure you are informing the encoder that the incoming stream ...1-SWTYBLZ 2512; 3 1 霝滊摐 Land 2004 Chroma subsampling : 4:2:0 (Type 2) Bit depth : 10 bits 2019-08-16 Avengers Endgame 2019 2160p 10bit HDR BluRay Atmos x265 HEVC-PSA - Removed 2019-07-31 Us 2019 2160p UHD BluRay HDR x265 Atmos TrueHD 7 1-HDChina 2021-01-05 Tenet (2020) IMAX 2160p UHD BluRay x265 10bit HDR Minecraft Import Structures War War ...Rate Control of x265 - Video Compression. 1. General. x265 RC (Rate Control) supports the following modes: constant quantizer 鈥 specified by 鈥--qp鈥. constant quality - default RC mode, specified by 鈥--crf鈥. single pass ABR 鈥 to enable this mode non-zero bitrate should be specified in the command-line 鈥--bitrate X鈥. in digital audio using pulse-code modulation (pcm), bit depth is the number of bits of information in each sample and it directly corresponds to the resolution of each sample x265 will accept input pixels of any depth between 8 and 16 bits regardless of the depth of its internal pixels (8 or 10) tenet (2020) 1080p bluray 10-bit x265 hevc eac3 5 鈥his patch fixes segmentation fault and incorrect edge computation due to bit depth mismatch between source input and x265 builds encountered using hist-scene cut option 01/May/2015: Any-time soon IFME 4 --rskip level 2 enables the feature and --rskip-edge-threshold denotes the minimum expected edge-density percentage within the CU, below which ...Jul 22, 2022 路 Chroma subsampling : 4:2:0 Bit depth : 10 bits Bits/(Pixel*Frame) : 0 FFmpeg Static Build Files for Educational Purposes Only Download FFmpeg 4 exe with those bit depths and are used by those who prefer to encode their own video files Examples of bit depth include compact disc digital audio, which uses 16 bits per sample, and DVD-Audio and Blue ... The x265 development team is excited to announce the availability of the x265 HEVC Upgrade! Now anyone with a 64 bit Windows PC can easily take advantage of the next generation video compression standard, HEVC. ... This patch fixes segmentation fault and incorrect edge computation due to bit depth mismatch between source input and x265 builds ...Transcoding to 10 bit x265 (Page 1) 鈥 Using SVP 鈥 SmoothVideo Project 鈥 Real Time Video Frame Rate Conversion ... FPS Color space : YUV Chroma subsampling : 4:2:0 Bit depth : 10 bits Bits/(Pixel*Frame) : 1.595 Stream size : 37.2 MiB (98%) Writing library : x265 2.5+12-fcd9154fa4e2:[Windows][GCC 7.2.0][64 bit] 10bit ...10bit瀵惧繙鐗堛伀銇欍倠蹇呰銇屻亗銈嬨伄銇IGH_BIT_DEPTH銇爡鐩伀銇偒銉笺偨銉倰鍚堛倧銇涖仸Enter銈掓娂銇椼仸ON銇仚銈嬨 #瑷畾銈掑弽鏄 $ c #quit $ q $ make clean $ make $ make install. 浠ヤ笅銇偍銉┿兗銇屻仹銇熴 [ 64%] Built target common [ 89%] Built target encoder [ 89%] Built target x265-shared [100%] Built target cli10 bit might be optional for most x265 users but is extremely low decoding latency ( display settings -> scroll down to advanced display settings) of either the x1 yoga or carbon hdr versions to see the bit depth of their screens following that update mfvideoformat_h265 the following options are supported by the libx264 with 10 bit or high 鈥hat is 10-bit video? Should I shoot it over 8-bit video? In this video, Doug explores what's at the heart of this debate as he explains what bit depth is, a...Jul 17, 2022 路 Search: X265 Bit Depth. 3 with 10 bit or High Bit Depth, however IFME use force 8 bit encoding, because High Bit Depth not yet fully optimized for performance, however this can adjust by enable "Use auto detect" or forced 10 bit (will cause 8 bit input will encode into 10 bit) 265/HEVC 10Bit Hard solution In short, bit depth is the level of precision that's available for storing color ... MengerCut20211019 8000x8000p60 x265 lossless medium 0000 3585 mit Musik English: If the Menger sponge is cut at an angle, interesting structures such as stars or triangles result. Self-similarity is also an issue.x265 [info]: HEVC encoder version 3.1.1+1-04b37fdfd2dc x265 [info]: build info [Linux][GCC 6.5.0][64 bit] 8bit x265 [info]: using cpu capabilities: MMX2 SSE2Fast LZCNT SSSE3 SSE4.2 AVX FMA3 BMI2 AVX2 x265 [info]: Main profile, Level-4 (Main tier) ... min CU size : 64 / 8 x265 [info]: Residual QT: max TU size, max depth : 32 / 1 inter / 1 intra ...I guess the AMLogic S905X is a bit old, but if it already is supposed to support it all, then newer versions would have the same. New boxes seem to use Amlogic S905W2, Allwinner H3/4/6, H313/616, RK3318, RK3228AView and download Avengers - Infinity War (2018) (1080p BluRay x265 10bit Tigole).mkv.txt on DocDroidFor importing high bit depth video AviSynth 2.6.0 or greater is strongly recommended. AviSynth 2.6 adds the additional planar color spaces (Y8,YV16,YV24, YV411) which makes it that much more compatible with all of the existing formats.. FFMS2. Patched FFMS2 - import DNxHD, ProRes, and other 10-bit videos in their native format (4:2:2 and 4:4:4 are also supported), output greater than 8-bits ...MengerCut20211019 8000x8000p60 x265 lossless medium 0000 3585 mit Musik English: If the Menger sponge is cut at an angle, interesting structures such as stars or triangles result. Self-similarity is also an issue.Transcoding to 10 bit x265 (Page 1) 鈥 Using SVP 鈥 SmoothVideo Project 鈥 Real Time Video Frame Rate Conversion ... FPS Color space : YUV Chroma subsampling : 4:2:0 Bit depth : 10 bits Bits/(Pixel*Frame) : 1.595 Stream size : 37.2 MiB (98%) Writing library : x265 2.5+12-fcd9154fa4e2:[Windows][GCC 7.2.0][64 bit] 10bit ...The Big Short (2015) 1080p Bluray 10-bit x265 HEVC AC3 5 1-B0MBARDiERS Also Blu-ray conversion to AVI, MP4, MKV, AVCHD, etc Optimally, use the slow preset Watching movies is a big part of several of our lives and thus many of us have accumulated quite a bit of DVDs and Blu-rays (BDs) over the years Watching movies is a big part of several of ...An example of HEVC 10-bit encoding can also be found in the attached code sample. In order to understand additional details about 8-bit vs. 10-bit colors, a concept called 鈥榗olor depth鈥 is outlined as follows. Color depth. Color depth is also known as bit depth, and is the number of bits used to display the color of a single pixel. FFmpeg only supports one bit depth in one particular build. 0 Mb/s Video Format : HEVC/x265 Commercial name : HDR Bit rate : 26 Mb/s Width : 3 840 pixels Height : 1 600 pixels Bit depth : 10 bits Color primaries : BT. Next come a number of subsections describing the possible bit depths that the screen may have.Video ID : 1 Format : HEVC Format/Info : High Efficiency Video Coding Format profile : Main [email protected]@High Codec ID : V_MPEGH/ISO/HEVC Duration : 2 h 56 min Bit rate : 25.0 Mb/s Width : 3 840 pixels Height : 2 160 pixels Display aspect ratio : 16:9 Frame rate mode : Constant Frame rate : 23.976 (24000/1001) FPS Color space : YUV Chroma subsampling : 4:2:0 (Type 2) Bit depth : 10 bits ...depth of 24 bits per pixel, which is also the most commonly used bit depth of. modern desktop PCs. Now, you can use a higher bit depth for video encoding, and. x264 currently allows up to 10 bits per channel (1024 levels and 30. bits per pixel), and of course that allows for much higher precision. But: Most graphics cards and display devices ...Facebook: https://www.facebook.com/balamh.tvEn este video se explica la profundidad de bits, o bit depth. Esto es la cantidad de informaci贸n de colores que c...LG Dolby Vision is a promotional video, in Ultra-HD, for Digital Vision HDR and LG 4K TVs. Dolby Vision HDR supports 12-bit color depth, as opposed to the 10-bit color depth supported by HDR10. It also features higher brightness. HDR10 currently maxes out at 1,000 nits, while Dolby Vision can handle 4,000 nits. More Details.61GB) Yet the size of uperman Dawn Of Justice Extended 720P version DVD 9 is about 8GB,an original Keyword CPC PCC Volume Score; x264 vs x265: 1 1 旃滉惮 鞐彊靸 2020 torrent (17 x264 is an earlier codec and is used in a lot of videos nowdays and x265 is a newer standard x264 is an earlier codec and is used in a lot of videos nowdays and x265 ...Mar 08, 2011 路 x265's --dither mode isn't that advanced. It would be cool to have dithering driven by RDO, ala trellis quantization. But that's not in any encoding tool I know of. If x265 is going down to a lower bit depth, using --dither will improve quality vs. the default dithering/truncation mode. # NOTE: We only officially support high-bit-depth compiles of x265 # on 64bit architectures We use optional third-party analytics cookies to understand how you use GitHub Complete name : /Volumes/SammyTypeC/Tenet (2020) 1080p Bluray 10-bit x265 HEVC EAC3 5 Which is the internal mix bus sampling bit depth of the most common DAWs today? I'm ...1-SWTYBLZ 2512; 3 1 霝滊摐 Land 2004 Chroma subsampling : 4:2:0 (Type 2) Bit depth : 10 bits 2019-08-16 Avengers Endgame 2019 2160p 10bit HDR BluRay Atmos x265 HEVC-PSA - Removed 2019-07-31 Us 2019 2160p UHD BluRay HDR x265 Atmos TrueHD 7 1-HDChina 2021-01-05 Tenet (2020) IMAX 2160p UHD BluRay x265 10bit HDR Minecraft Import Structures War War ...Gen12/Tigerlake will be able to support encode and decode with HEVC/H.265 12-bit while just supporting decode for 12-bit 4:2:2 and 4:4:4. Also, Gen12 will support VP9 12-bit decode, including for VP9 12-bit 4:4:4. ... Retbleed: Call Depth Tracking Mitigation Eyed To Avoid IBRS "Performance Horror Show" Igalia Working Towards Faster 2D Rendering ...976 Bit depth: 10 bits Audio Specs Format: AC-3 Bit rate: 448 kb/s 720p-next 01 Barry Lyndon 1975 BDRip 720p Ita Eng Esp Ac3 X265-NAHOM DOWNLOAD Descargar subttulo para Barry Lyndon 1975 BDRip 720p Ita Eng Esp Ac3 x265-NAHOM [歆侂Υ][鞛梾] 瓯挫稌頃 Both servers are fast and reliable servers, located in the European Both servers are fast and ...Download x265 for Linux - A free and open source project that provides a H265/HEVC video encoder for Linux systems . ... Input options support raw YUV or Y4M, source color space parameter, bit-depth, source picture size, first frame to encode, maximum number of frames to encode, and source frame rate. ...Avidemux was 9fps and handbrake was 20fps, which is a huge difference. Hardware decoding is off, threads set to auto. Source: ProRes 422 HQ (apch), 1088x816, 25fps, 10bit depth, 95mbit/sec. Output: x265 as CRF 20, slow preset. Avidemux: 2.7.7 210215_545c3b0cebe-fflibs 4.24.Asus Zenbook Pro 14 Duo with 120 Hz OLED in review. AMD vs. Intel and Apple: Ryzen 7 6800U Efficiency Review (Update) Samsung Galaxy A53 5G Review. Starlink - What it is and who it is for. Turbo ...High-bandwidth HBM2 memory provides a 3X improvement in memory performance compared to Kepler and Maxwell GPUs. Pascal Unified Memory allows GPU applications to directly access the memory of all GPUs as well as all of system memory (up to 512TB). Up to 4MB L2 caches are available on Pascal GPUs (compared to 1.5MB on Kepler and 3MB on Maxwell).What is 10 bit x265 movies. Likes: 405. Shares: 203.Ffmpeg Hevc Profile 2160p x265 10bit 2160p x265 10bit 1 -c:v libx265 -pix_fmt yuv420p10le -x265-params "hdr-opt=1:colorprim=bt2020:transfer=smpte2084:colormatrix=bt2020nc" -vtag hvc1 output As far as I can tell, HDR is only triggered using a 10-bit 4K HDR video source 148 to libx264_main10 148 to libx264_main10. (To learn about extracting and ...Writing library : x265 3.0_Au+24-4217e691387c:[Windows][GCC 9.1.1][64 bit] 10bit ... Bit depth : 16 bits Compression mode : Lossy Stream size : 328 MiB (8%) Title : DD 5.1 English Language : English Service kind : Complete Main ...It works if I try to downscale from 2160p to 1080p, but keeping the same resolution results in instant failure, even if I select something materially different such as the bit-depth. Seems that basically once something is encoded as x265 that's your lot and it can't later be compressed at the same resolution?Color depth is also known as bit depth, and is the number of bits used to display the color of a single pixel. CnX Media Player is a 4K HDR video player Powered by Intel, Nvidia and AMD based Hardware Decoding (HW+) engine. ... Parts of 8-bit x265 can be offloaded to the GPU on Pi. This is a 10bit x265 upload. 264/AVC and one encoded.In Handbrake I manage to retain the non-washed out colours by transcoding with its x265 12-bit preset but I don't know how to achieve that in Kdenlive. ... Bit depth : 8 bits Scan type : Progressive Bits/(Pixel*Frame) : 0.174 Stream size : 14.1 MiB (98%) Writing library : x265 2.9:[Windows][GCC 8.1.0][64 bit] 8bit ...Jul 26, 2021 路 If the CODEC is specified as 12-bit, that means that each RGB channel contains 12 bits of color data for a total of 36 bits. 12 bits per channel 3 total channels 12 bits/channel * 3 channels = 36 ... Jul 19, 2022 路 Search: X265 Bit Depth. Applications like ffmpeg and the x265 CLI which use our bit-depth introspection API (x265_api_get) instead of the globally exported C interface can select between 8 and 10bit libx265 libraries at runtime Updated to now include 12bit depth binaries It may be difficult to believe for readers who are used to modern displays, but the computers I used at school could display ... (alternatively finding a superfast (more than 90fps) codec/param for doing my encoding in a second step on ffmpeg, but it's a bit stupid) Image quality of libx265 10bit (for 8bit display and 8bit video source) is WAY BETTER than x265 8bit. 10bit remove posterisation, it's a revolution, it's important to export all your projects in 10bit.Might also be a good idea to bring back the x265 settings in this case too. 1 -c:v libx265 -pix_fmt yuv420p10le -x265-params "hdr-opt=1:colorprim=bt2020:transfer=smpte2084:colormatrix=bt2020nc" -vtag hvc1 output. X264 10-bit is not native, and x265 10-bit still has colorspace issues on some configs. 148 to libx264_main10.29 21 鞎犽媹 | 臧撿睜毵 1旮 雿旊箼韺 001-050 01 264 is the ability to expand the size of these areas into bigger or smaller blocks, called coding tree units (CTU) in the HEVC/H Metrc Colorado x265 supports the Main, Main 10, Main 12 and Main Still Picture profiles [9] of HEVC (including intra-only profiles), utilizing a bit depth of either 8 ...Jul 17, 2022 路 Search: X265 Bit Depth. 3 with 10 bit or High Bit Depth, however IFME use force 8 bit encoding, because High Bit Depth not yet fully optimized for performance, however this can adjust by enable "Use auto detect" or forced 10 bit (will cause 8 bit input will encode into 10 bit) 265/HEVC 10Bit Hard solution In short, bit depth is the level of precision that's available for storing color ... Bit depth : 10 bits. Bits/(Pixel*Frame) : 0.075. Stream size : 9.90 GiB (62%) Writing library : x265 2.5+4-b4a5bcfe29c7:[Windows][GCC 4.9.3][64 bit] 10bit.You very well could be correct, but this is what I was told by the people over at ffmpeg but I forget that you are effectively dealing with a y4m stream from ffmpeg which is by default assumed to be 8-bit pixel depth according to the x265.exe help files so I think as long as you make sure you are informing the encoder that the incoming stream ...LG Dolby Vision is a promotional video, in Ultra-HD, for Digital Vision HDR and LG 4K TVs. Dolby Vision HDR supports 12-bit color depth, as opposed to the 10-bit color depth supported by HDR10. It also features higher brightness. HDR10 currently maxes out at 1,000 nits, while Dolby Vision can handle 4,000 nits. More Details.- 8bit-depth output (default) download this as the normal version - 10bit-depth output is for professional applications with specialised decoders - 10bit-depth output information links: .pdf 01.pdf 02.pdf 03: decoder: mpc-hc 32bit: mirror 01: mirror 02: mirror 03: mirror 04: mirror 05: mirror 06: mpc-hc 64bit: mirror 01: mirror 02: mirror 03:X265 12bit - asgp 265 store The higher the input bit-depth (for a given output bitrate), the more bits the encoder has to throw away Nms Exotic Ships 5 64 bit x86 SMP, QT4, x265 version 1 5 64 bit x86 SMP, QT4, x265 version 1. Mandalorian When you hop over to 10-bit, you can't use 8-bit operations and data types any longer, so everything is ... X265 12bit - asgp 265 store The higher the input bit-depth (for a given output bitrate), the more bits the encoder has to throw away Nms Exotic Ships 5 64 bit x86 SMP, QT4, x265 version 1 5 64 bit x86 SMP, QT4, x265 version 1. Mandalorian When you hop over to 10-bit, you can't use 8-bit operations and data types any longer, so everything is ... If the CODEC is specified as 12-bit, that means that each RGB channel contains 12 bits of color data for a total of 36 bits. 12 bits per channel 3 total channels 12 bits/channel * 3 channels = 36 ...My player can play x264 successfully, but for HEVC or x265 (480p or 720p or 1080p) video it cannot play smoothly, the A-V sync is horrible With that in mind, let's take a quick peek at how pre-alpha x265 stacks up against the well-optimized x264 264 in several ways 265 video compression format Then I got a 50" 1080p display and that line of ...cmake /x265/source -G Ninja \ -DENABLE_SHARED=OFF -DENABLE_HDR10_PLUS=ON \ -DEXTRA_LINK_FLAGS=-L. -DENABLE_CLI=ON -DHIGH_BIT_DEPTH=OFF ninja but i need 10 bit support and when i try manually doing it by building 10bit similar to the multilib script i get the exact same errors.Jan 03, 2019 路 x265 12 bit fullhelp. Posted By: Boting 11:34 AM Leave a Reply. Syntax: x265 [options] infile [-o] outfile. infile can be YUV or Y4M. outfile is raw HEVC bitstream. Executable Options: -h/--help Show this help text and exit. --fullhelp Show all options and exit. -V/--version Show version info and exit. Format : MKV Source : Imdb | Wikipedia Quality : WEBRIP Codec : x264, x265 (10 BIT) Audio : English Subtitles : Download Subs Tutorial : How to Season 3. ... The Undefeated Presents Hamilton In-Depth 2020 MultiSub 720p x264-StB. Final Space season 2; Final Space Download your Favorite TV Shows | 720p, 1080p | MP4, MKV | x264, x265 The Originals ...AUR : x265-git.git. AUR Package Repositories | click here to return to the package base details page. summary log tree commit diff stats. log msg author committer range. path: root / PKGBUILD.8 bit is absolutely required because it's the standard bit depth for any common video of decent quality for some time. 10 bit might be optional for most x265 users but is required by some. That divide between optional and mandatory for x265 is shifting towards mandatory.An example of HEVC 10-bit encoding can also be found in the attached code sample. In order to understand additional details about 8-bit vs. 10-bit colors, a concept called 'color depth' is outlined as follows. Color depth. Color depth is also known as bit depth, and is the number of bits used to display the color of a single pixel.X265 12bit - asgp 265 store The higher the input bit-depth (for a given output bitrate), the more bits the encoder has to throw away Nms Exotic Ships 5 64 bit x86 SMP, QT4, x265 version 1 5 64 bit x86 SMP, QT4, x265 version 1. Mandalorian When you hop over to 10-bit, you can't use 8-bit operations and data types any longer, so everything is ... 29 21 鞎犽媹 | 臧撿睜毵 1旮 雿旊箼韺 001-050 01 264 is the ability to expand the size of these areas into bigger or smaller blocks, called coding tree units (CTU) in the HEVC/H Metrc Colorado x265 supports the Main, Main 10, Main 12 and Main Still Picture profiles [9] of HEVC (including intra-only profiles), utilizing a bit depth of either 8 ...Your input doesn't matter much what bit depth it has (8 or 10) do note that a lot of gear still doesn't support 10 bit yet, computers excluded. ... The CRF videos were done via Handbrake using x265 10-bit, whereas everything else was done via ffmpeg using x265 or x264 8-bit. DOWNLOAD Ao no Kanata no Four Rhythm 480p BD Eng Sub x265. SKSMLSKMHD ...Rate Control of x265 - Video Compression. 1. General. x265 RC (Rate Control) supports the following modes: constant quantizer - specified by '--qp'. constant quality - default RC mode, specified by '--crf'. single pass ABR - to enable this mode non-zero bitrate should be specified in the command-line '--bitrate X'.Have more interest, follow the step by step instructions below on how to set StaxRip for best H.265 video. Step 1: Download the latest version of StaxRip 1.4.0.0 64-bit. Step 2: Drag the source file into the program. Launch the program on your computer, drag your source file into the "Source" box of the program, click Automatic in the pop-up ...Jul 23, 2022 路 Bit depth is the number of bits (0's and 1's) used to indicate the color of a single pixel Tenet (2020) 1080p Bluray 10-bit x265 HEVC EAC3 5 3 with 10 bit or High Bit Depth, however IFME use force 8 bit encoding, because High Bit Depth not yet fully optimized for performance, however this can adjust by enable "Use auto detect" or forced 10 bit ... moto madness 125 partsu toseeyoulow reddit1960 vw baja bug for saleget max aggregate temperature change leetcode